#TITLE:LIES;
#SUBTITLE:;
#ARTIST:King Kong & D. Jungle Girls;
#TITLETRANSLIT:;
#SUBTITLETRANSLIT:;
#ARTISTTRANSLIT:;
#CREDIT:;
#BANNER:;
#BACKGROUND:;
#LYRICSPATH:;
#CDTITLE:;
#MUSIC:Lies.mp3;
#MUSICLENGTH:96.026;
#OFFSET:-0.040;
#SAMPLESTART:57.545;
#SAMPLELENGTH:12.000;
#SELECTABLE:YES;
#BPMS:0.000=125.000;
#STOPS:;
#BGCHANGES:;
#FIRSTBEAT:8.000;

#LASTBEAT:200.000;

#SONGFILENAME:Songs/EXTRA/Lies/Lies.sm;

#HASMUSIC:1;

#HASBANNER:0;


//---------------dance-single - MANIAC----------------
#NOTES:
     dance-single:
     MANIAC:
     hard:
     7:
     0.509,0.443,0.260,0.135,0.344,304.000,25.000,13.000,0.000,0.000:  // measure 1
0000
0000
0000
0000
,  // measure 2
0000
0000
0000
0000
,  // measure 3
1000
0100
0000
0100
1000
0000
0000
0000
0010
0100
0000
0100
0010
0000
0000
0000
,  // measure 4
0001
0000
0001
0000
0010
0000
0010
0000
0100
0000
0000
1100
0000
0000
0000
0000
,  // measure 5
0001
0010
0000
0010
0001
0000
0000
0000
0010
0100
0000
0100
0010
0000
0000
0000
,  // measure 6
1000
0000
1000
0000
0010
0000
0010
0000
0100
0000
0000
0101
0000
0000
0000
0000
,  // measure 7
1000
0010
0000
0010
1000
0000
0000
0000
0100
0010
0000
0010
0100
0000
0000
0000
,  // measure 8
1000
0000
1000
0000
0100
0000
0100
0000
0010
0000
0000
0011
0000
0000
0000
0000
,  // measure 9
0001
0100
0000
0100
0001
0000
0000
0000
0100
0010
0000
0010
0100
0000
0000
0000
,  // measure 10
0001
0000
0001
0000
0100
0000
0100
0000
0010
0000
0000
1010
0000
0000
0000
0000
,  // measure 11
2010
0000
0010
3000
0010
0000
0010
1000
,  // measure 12
0100
0000
1000
0000
0010
0000
0100
0000
0010
0000
0100
0000
0010
0000
1000
0100
,  // measure 13
0000
0000
0000
0000
0001
0000
0001
0000
0000
0000
0001
1000
0000
1000
0001
0000
,  // measure 14
0000
0000
0000
0000
1000
0000
1000
0000
0000
0000
1000
0001
0000
0001
1000
0000
,  // measure 15
1002
0000
1000
0000
0103
0000
0010
0001
,  // measure 16
0010
0001
1000
0100
1000
0010
1000
0100
,  // measure 17
0010
0000
0000
0010
0000
0000
0010
0000
0100
0000
0000
0100
0000
0000
0100
0000
,  // measure 18
0001
0000
0000
0001
0000
0000
0001
0000
1000
0000
0000
1000
0000
0000
1000
0000
,  // measure 19
0001
0010
0001
0100
0010
0010
0000
0000
,  // measure 20
1100
0000
0000
1010
0000
0000
1002
0000
1000
0000
0000
1000
0000
0000
1003
0000
,  // measure 21
1000
0100
0010
0100
1000
0010
0000
0000
,  // measure 22
1100
0011
1100
0011
,  // measure 23
0001
0010
0001
0000
1000
0010
1000
0000
,  // measure 24
1000
0000
0100
0000
0001
0000
0100
0000
1000
0000
0100
0000
1000
0000
0100
1000
,  // measure 25
0000
0000
0000
0000
0100
0000
0100
0000
0000
0000
0100
0010
0000
0010
0100
0000
,  // measure 26
0000
0000
0000
0000
0010
0000
0010
0000
0000
0000
0010
0100
0000
0100
0010
0000
,  // measure 27
2010
0100
3010
0100
,  // measure 28
0001
0100
0010
0100
0010
0100
0001
1000
,  // measure 29
0001
0000
0000
0001
0000
0000
0001
0000
0010
0000
0000
0010
0000
0000
0010
0000
,  // measure 30
1000
0000
0000
1000
0000
0000
1000
0000
0100
0000
0000
0100
0000
0000
0100
0000
,  // measure 31
0200
0320
0032
1003
,  // measure 32
0101
0000
0000
0011
0000
0000
1001
0000
0000
0000
0010
0000
0100
0000
0000
0000
,  // measure 33
0000
0000
1000
0000
0001
0000
0000
1000
0001
0000
0001
0000
0000
0000
0000
0000
,  // measure 34
1000
0100
0000
0000
0001
0100
0000
0000
1000
0100
0000
0000
0001
0100
0000
0000
,  // measure 35
1002
0000
1000
0000
0003
0100
1000
0100
,  // measure 36
0000
0100
0010
0100
0000
0100
0001
0200
,  // measure 37
0001
0010
1300
1100
,  // measure 38
0100
0010
0100
0001
0100
1000
0100
0010
,  // measure 39
0200
0000
0001
0000
0000
0310
0100
0001
,  // measure 40
0000
0001
1000
0100
0000
0100
0010
2000
,  // measure 41
0001
3001
1001
1001
,  // measure 42
0010
1000
0010
0001
0010
1000
0100
0100
,  // measure 43
1000
0100
0000
0100
1000
0000
0000
0000
0010
0100
0000
0100
0010
0000
0000
0000
,  // measure 44
0001
0000
0001
0000
0010
0000
0010
0000
0100
0000
0000
1100
0000
0000
0000
0000
,  // measure 45
0001
0010
0000
0010
0001
0000
0000
0000
0010
0100
0000
0100
0010
0000
0000
0000
,  // measure 46
1000
0000
1000
0000
0010
0000
0010
0000
0100
0000
0000
0101
0000
0000
0000
0000
,  // measure 47
1000
0010
0000
0010
1000
0000
0000
0000
0100
0010
0000
0010
0100
0000
0000
0000
,  // measure 48
1000
0000
1000
0000
0100
0000
0100
0000
0010
0000
0000
0011
0000
0000
0000
0000
,  // measure 49
0001
0100
0000
0100
0001
0000
0000
0000
0100
0010
0000
0010
0100
0000
0000
0000
,  // measure 50
0001
0000
0001
0000
0100
0000
0100
0000
0010
0000
0000
2020
0000
0000
0000
0000
,  // measure 51
3030
0000
0000
0000
;

//---------------dance-single - ANOTHER----------------
#NOTES:
     dance-single:
     ANOTHER:
     medium:
     6:
     0.381,0.364,0.062,0.104,0.005,240.000,6.000,10.000,0.000,0.000:  // measure 1
0000
0000
0000
0000
,  // measure 2
0000
0000
0000
0000
,  // measure 3
1000
0100
1000
0000
0001
0010
0001
0000
,  // measure 4
1000
1000
0001
0001
0100
0000
0100
0000
,  // measure 5
0010
1000
0100
0000
0010
0001
0100
0000
,  // measure 6
1000
1000
0100
0100
0010
0000
0010
0000
,  // measure 7
0001
1000
0100
0000
0001
1000
0100
0000
,  // measure 8
0010
0010
0001
0001
1000
0000
1000
0000
,  // measure 9
0100
0010
0100
0000
0010
0100
0010
0000
,  // measure 10
1000
0001
1000
0001
0001
0000
0001
0000
,  // measure 11
1000
0100
0110
0000
,  // measure 12
0001
1000
0110
0000
,  // measure 13
0010
1000
0100
0000
0001
0000
0001
0000
,  // measure 14
0010
1000
0100
0000
0001
0000
0001
0000
,  // measure 15
0100
0001
0010
0100
0010
0000
0001
0000
,  // measure 16
0010
1000
0100
0100
,  // measure 17
0020
0000
2030
0000
,  // measure 18
3200
0000
0000
0000
0320
0000
0000
0030
,  // measure 19
0001
0001
0001
0001
,  // measure 20
1000
1000
1000
1000
,  // measure 21
0010
1000
0100
0010
,  // measure 22
0001
1000
1100
0101
,  // measure 23
0110
0000
0100
0000
1000
0001
1000
0000
,  // measure 24
0100
0010
0100
0000
0100
0001
0100
0000
,  // measure 25
0001
0000
0100
0000
1000
0010
1000
0000
,  // measure 26
0100
0010
0001
0010
0001
0000
0010
0000
,  // measure 27
0010
0000
0001
0000
1000
0100
1000
0000
,  // measure 28
0001
0010
0001
0100
0001
0000
0010
0000
,  // measure 29
0010
0001
0001
0001
,  // measure 30
1000
0000
1000
0000
2000
0000
0100
3000
,  // measure 31
0010
0000
0100
0000
0010
0000
0001
1000
,  // measure 32
0010
0000
0100
0000
0001
0000
0010
0100
,  // measure 33
0010
0000
0001
0000
0010
0100
0001
0000
,  // measure 34
0010
0100
1000
0000
0100
0000
0010
0000
,  // measure 35
0110
0001
0002
0000
,  // measure 36
1000
0000
1000
0003
0100
0000
0010
0100
,  // measure 37
1000
0001
0100
0001
,  // measure 38
1000
0100
1000
0100
1000
0100
1000
0200
,  // measure 39
0020
0300
0000
0000
0000
0030
1000
0000
,  // measure 40
0100
0000
1000
0000
0001
0000
0100
0001
,  // measure 41
0010
0001
0010
1000
,  // measure 42
0010
1000
0010
1000
0001
1000
0010
0000
,  // measure 43
0100
0000
0010
0000
0001
0100
0001
0000
,  // measure 44
0010
0010
0001
0001
1000
0000
1000
0000
,  // measure 45
0010
0100
0010
0000
0001
1000
0001
0000
,  // measure 46
0010
0010
1000
1000
0100
0000
0100
0000
,  // measure 47
0010
0001
0010
0000
0100
1000
0100
0000
,  // measure 48
0010
0010
0001
0001
1000
0000
1000
0000
,  // measure 49
0100
0010
0100
0000
1000
0010
1000
0000
,  // measure 50
0001
0000
0001
0000
1000
0000
1000
0000
0002
0000
0000
2003
0000
0000
0000
0000
,  // measure 51
3000
0000
0000
0000
;

//---------------dance-single - BASIC----------------
#NOTES:
     dance-single:
     BASIC:
     easy:
     4:
     0.265,0.260,0.031,0.062,0.000,169.000,3.000,6.000,0.000,0.000:  // measure 1
0000
0000
0000
0000
,  // measure 2
0000
0000
0000
0000
,  // measure 3
0001
0001
1000
1000
,  // measure 4
0100
0100
0010
0010
,  // measure 5
1000
1000
0001
0001
,  // measure 6
0010
0010
0100
0100
,  // measure 7
1000
0000
0001
0000
,  // measure 8
0100
0100
0010
0010
,  // measure 9
1000
0000
0001
0000
,  // measure 10
0010
0010
0100
0100
,  // measure 11
1000
0001
0010
0100
,  // measure 12
1000
0000
0001
0000
0010
0000
0001
0010
,  // measure 13
0001
1000
0100
0010
,  // measure 14
0010
0100
1000
0010
,  // measure 15
0010
0000
0001
0000
,  // measure 16
1000
0010
1000
0100
,  // measure 17
1000
0010
1000
0100
,  // measure 18
0020
0000
0000
0000
,  // measure 19
0031
1000
0100
0010
,  // measure 20
0001
0001
0001
0000
,  // measure 21
1000
0010
0100
0000
,  // measure 22
1000
1000
1100
1100
,  // measure 23
0010
0100
0010
0001
,  // measure 24
1000
0000
0100
0000
1000
0000
0100
0010
,  // measure 25
0100
0010
1000
0001
,  // measure 26
1000
0010
1000
0100
,  // measure 27
0010
0000
0001
0000
,  // measure 28
0001
1000
0100
0010
,  // measure 29
0001
0001
0001
0000
,  // measure 30
0010
0010
0010
0000
,  // measure 31
0200
0000
0000
0000
,  // measure 32
0320
0000
0000
0000
,  // measure 33
0032
1000
1000
1000
,  // measure 34
0023
0000
0000
0130
,  // measure 35
0110
0010
1000
0100
,  // measure 36
0100
0000
0010
0001
,  // measure 37
0100
0100
0000
0010
,  // measure 38
0100
0000
0010
0000
0100
0010
0100
0010
,  // measure 39
0100
1000
0001
0000
,  // measure 40
1000
0010
1000
0000
,  // measure 41
0001
0010
0001
0000
,  // measure 42
1000
0000
0010
0000
1000
0100
1000
0100
,  // measure 43
1000
0001
0010
0100
,  // measure 44
0010
0010
0100
0100
,  // measure 45
1000
0001
0100
0010
,  // measure 46
0001
0001
1000
1000
,  // measure 47
0010
0100
0001
0010
,  // measure 48
1000
1000
0010
0010
,  // measure 49
0100
0001
0000
0001
,  // measure 50
0100
0000
0100
0000
0001
2000
0000
0000
,  // measure 51
3000
0000
0000
0000
;
